anemone

anemone作者

默认节点·87.4天前

【求助】x265 [error]: preset or tune unrecognized

请问点击压制后很快就结束了,但并没有压制成功,只弹出日志文件。完全按照教程来操作的
日志如下:
E:\Marukotoolbox>"E:\Marukotoolbox\tools\ffmpeg.exe" -i "E:\Program Files (x86)\暂存盘\00001_2.mp4" -strict -1 -f yuv4mpegpipe -an - | E:\Marukotoolbox\tools\x265_64-8bit[gcc].exe --y4m --pass 1 --bitrate 2950 --stats "E:\Marukotoolbox\temp\00001_2_vtemp.stats" --tune film --qcomp 0.6 --keyint auto --min-keyint 1 --profile high --level 5.1 --preset 8 --scenecut 60 --aq-mode 2 --aq-strength 0.8 -o NUL -
ffmpeg version N-81989-g7845c13 Copyright (c) 2000-2016 the FFmpeg developers

built with gcc 5.4.0 (GCC)

configuration: --enable-gpl --enable-version3 --disable-w32threads --enable-dxva2 --enable-libmfx --enable-nvenc --enable-avisynth --enable-bzlib --enable-libebur128 --enable-fontconfig --enable-frei0r --enable-gnutls --enable-iconv --enable-libass --enable-libbluray --enable-libbs2b --enable-libcaca --enable-libfreetype --enable-libgme --enable-libgsm --enable-libilbc --enable-libmodplug --enable-libmp3lame --enable-libopencore-amrnb --enable-libopencore-amrwb --enable-libopenh264 --enable-libopenjpeg --enable-libopus --enable-librtmp --enable-libschroedinger --enable-libsnappy --enable-libsoxr --enable-libspeex --enable-libtheora --enable-libtwolame --enable-libvidstab --enable-libvo-amrwbenc --enable-libvorbis --enable-libvpx --enable-libwavpack --enable-libwebp --enable-libx264 --enable-libx265 --enable-libxavs --enable-libxvid --enable-libzimg --enable-lzma --enable-decklink --enable-zlib

libavutil

55. 32.100 / 55. 32.100

libavcodec

57. 61.103 / 57. 61.103

libavformat

57. 52.100 / 57. 52.100

libavdevice

57. 0.102 / 57. 0.102

libavfilter

6. 64.100 / 6. 64.100

libswscale

4. 1.100 / 4. 1.100

libswresample 2. 2.100 / 2. 2.100

libpostproc

54. 0.100 / 54. 0.100
x265 [error]: preset or tune unrecognized
Input #0, mov,mp4,m4a,3gp,3g2,mj2, from 'E:\Program Files (x86)\鏆傚瓨鐩榎00001_2.mp4':

Metadata:

major_brand

: mp42

minor_version : 0

compatible_brands: mp42mp41

creation_time : 2018-12-29T14:57:38.000000Z

Duration: 00:03:58.08, start: 0.000000, bitrate: 34079 kb/s

Stream #0:0(eng): Video: h264 (High) (avc1 / 0x31637661), yuv420p(tv, bt709), 1920x1080 [SAR 1:1 DAR 16:9], 33763 kb/s, 25 fps, 25 tbr, 25k tbn, 50 tbc (default)

Metadata:

creation_time : 2018-12-29T14:57:38.000000Z

handler_name

: Alias Data Handler

encoder

: AVC Coding

Stream #0:1(eng): Audio: aac (LC) (mp4a / 0x6134706D), 48000 Hz, stereo, fltp, 317 kb/s (default)

Metadata:

creation_time : 2018-12-29T14:57:38.000000Z

handler_name

: Alias Data Handler
Output #0, yuv4mpegpipe, to 'pipe:':

Metadata:

major_brand

: mp42

minor_version : 0

compatible_brands: mp42mp41

encoder

: Lavf57.52.100

Stream #0:0(eng): Video: wrapped_avframe, yuv420p, 1920x1080 [SAR 1:1 DAR 16:9], q=2-31, 200 kb/s, 25 fps, 25 tbn, 25 tbc (default)

Metadata:

creation_time : 2018-12-29T14:57:38.000000Z

handler_name

: Alias Data Handler

encoder

: Lavc57.61.103 wrapped_avframe
Stream mapping:

Stream #0:0 -> #0:0 (h264 (native) -> wrapped_avframe (native))
Press [q] to stop, [?] for help
av_interleaved_write_frame(): Invalid argument
Error writing trailer of pipe:: Invalid argumentframe=

1 fps=0.0 q=-0.0 Lsize=

3038kB time=00:00:00.04 bitrate=622093.6kbits/s speed=0.346x

video:0kB audio:0kB subtitle:0kB other streams:0kB global headers:0kB muxing overhead: 809917.687500%
Conversion failed!
E:\Marukotoolbox>"E:\Marukotoolbox\tools\ffmpeg.exe" -i "E:\Program Files (x86)\暂存盘\00001_2.mp4" -strict -1 -f yuv4mpegpipe -an - | E:\Marukotoolbox\tools\x265_64-8bit[gcc].exe --y4m --pass 2 --bitrate 2950 --stats "E:\Marukotoolbox\temp\00001_2_vtemp.stats" --tune film --qcomp 0.6 --keyint auto --min-keyint 1 --profile high --level 5.1 --preset 8 --scenecut 60 --aq-mode 2 --aq-strength 0.8 -o "E:\Marukotoolbox\temp\00001_2_vtemp.hevc" -
ffmpeg version N-81989-g7845c13 Copyright (c) 2000-2016 the FFmpeg developers

built with gcc 5.4.0 (GCC)

configuration: --enable-gpl --enable-version3 --disable-w32threads --enable-dxva2 --enable-libmfx --enable-nvenc --enable-avisynth --enable-bzlib --enable-libebur128 --enable-fontconfig --enable-frei0r --enable-gnutls --enable-iconv --enable-libass --enable-libbluray --enable-libbs2b --enable-libcaca --enable-libfreetype --enable-libgme --enable-libgsm --enable-libilbc --enable-libmodplug --enable-libmp3lame --enable-libopencore-amrnb --enable-libopencore-amrwb --enable-libopenh264 --enable-libopenjpeg --enable-libopus --enable-librtmp --enable-libschroedinger --enable-libsnappy --enable-libsoxr --enable-libspeex --enable-libtheora --enable-libtwolame --enable-libvidstab --enable-libvo-amrwbenc --enable-libvorbis --enable-libvpx --enable-libwavpack --enable-libwebp --enable-libx264 --enable-libx265 --enable-libxavs --enable-libxvid --enable-libzimg --enable-lzma --enable-decklink --enable-zlib

libavutil

55. 32.100 / 55. 32.100

libavcodec

57. 61.103 / 57. 61.103

libavformat

57. 52.100 / 57. 52.100

libavdevice

57. 0.102 / 57. 0.102

libavfilter

6. 64.100 / 6. 64.100

libswscale

4. 1.100 / 4. 1.100

libswresample 2. 2.100 / 2. 2.100

libpostproc

54. 0.100 / 54. 0.100
x265 [error]: preset or tune unrecognized
Input #0, mov,mp4,m4a,3gp,3g2,mj2, from 'E:\Program Files (x86)\鏆傚瓨鐩榎00001_2.mp4':

Metadata:

major_brand

: mp42

minor_version : 0

compatible_brands: mp42mp41

creation_time : 2018-12-29T14:57:38.000000Z

Duration: 00:03:58.08, start: 0.000000, bitrate: 34079 kb/s

Stream #0:0(eng): Video: h264 (High) (avc1 / 0x31637661), yuv420p(tv, bt709), 1920x1080 [SAR 1:1 DAR 16:9], 33763 kb/s, 25 fps, 25 tbr, 25k tbn, 50 tbc (default)

Metadata:

creation_time : 2018-12-29T14:57:38.000000Z

handler_name

: Alias Data Handler

encoder

: AVC Coding

Stream #0:1(eng): Audio: aac (LC) (mp4a / 0x6134706D), 48000 Hz, stereo, fltp, 317 kb/s (default)

Metadata:

creation_time : 2018-12-29T14:57:38.000000Z

handler_name

: Alias Data Handler
Output #0, yuv4mpegpipe, to 'pipe:':

Metadata:

major_brand

: mp42

minor_version : 0

compatible_brands: mp42mp41

encoder

: Lavf57.52.100

Stream #0:0(eng): Video: wrapped_avframe, yuv420p, 1920x1080 [SAR 1:1 DAR 16:9], q=2-31, 200 kb/s, 25 fps, 25 tbn, 25 tbc (default)

Metadata:

creation_time : 2018-12-29T14:57:38.000000Z

handler_name

: Alias Data Handler

encoder

: Lavc57.61.103 wrapped_avframe
Stream mapping:

Stream #0:0 -> #0:0 (h264 (native) -> wrapped_avframe (native))
Press [q] to stop, [?] for help
av_interleaved_write_frame(): Broken pipe
Error writing trailer of pipe:: Broken pipeframe=

1 fps=0.0 q=-0.0 Lsize=

3038kB time=00:00:00.04 bitrate=622093.6kbits/s speed=0.0888x

video:0kB audio:0kB subtitle:0kB other streams:0kB global headers:0kB muxing overhead: 809917.687500%
Conversion failed!
E:\Marukotoolbox>"E:\Marukotoolbox\tools\mp4box.exe" -add "E:\Marukotoolbox\temp\00001_2_vtemp.hevc#trackID=1:name=" -new "E:\Program Files (x86)\暂存盘\00001_2_x265.mp4"

Cannot find file E:\Marukotoolbox\temp\00001_2_vtemp.hevc
Cannot find file E:\Marukotoolbox\temp\00001_2_vtemp.hevc
Error importing E:\Marukotoolbox\temp\00001_2_vtemp.hevc#trackID=1:name=: Requested URL is not valid or cannot be found
E:\Marukotoolbox>del "E:\Marukotoolbox\temp\00001_2_vtemp.hevc"
找不到 E:\Marukotoolbox\temp\00001_2_vtemp.hevc
E:\Marukotoolbox>echo ===== one file is completed! =====
===== one file is completed! =====

评论 0 立即评论

目前尚无评论

后发表评论