洧汐

洧汐作者

默认节点·40.8天前

一图流问题出错 求大佬解答

一图流压制完没有视频输出,怎么回事?求解!!!
D:\小丸工具箱>"D:\小丸工具箱\tools\ffmpeg.exe" -i "C:\Users\10930\陈观慧[??minilive要唱什么].mp4" -f wav - | D:\小丸工具箱\tools\neroaacenc.exe -br 128000 -ignorelength -if - -of audio.mp4 -lc
ffmpeg version N-81989-g7845c13 Copyright (c) 2000-2016 the FFmpeg developers

built with gcc 5.4.0 (GCC)*************************************************************

*

*

configuration: --enable-gpl --enable-version3 --disable-w32threads --enable-dxva2 --enable-libmfx --enable-nvenc --enable-avisynth --enable-bzlib --enable-libebur128 --enable-fontconfig --enable-frei0r --enable-gnutls --enable-iconv --enable-libass --enable-libbluray --enable-libbs2b --enable-libcaca --enable-libfreetype --enable-libgme --enable-libgsm --enable-libilbc --enable-libmodplug --enable-libmp3lame --enable-libopencore-amrnb --enable-libopencore-amrwb --enable-libopenh264 --enable-libopenjpeg --enable-libopus --enable-librtmp --enable-libschroedinger --enable-libsnappy --enable-libsoxr --enable-libspeex --enable-libtheora --enable-libtwolame --enable-libvidstab --enable-libvo-amrwbenc --enable-libvorbis --enable-libvpx --enable-libwavpack --enable-libwebp --enable-libx264 --enable-libx265 --enable-libxavs --enable-libxvid --enable-libzimg --enable-lzma --enable-decklink --enable-zlib* Nero AAC Encoder

*

* Copyright 2009 Nero AG

*

libavutil

55. 32.100 / 55. 32.100* All Rights Reserved Worldwide

*
*

*

* Package build date: Feb 18 2010

*

libavcodec

57. 61.103 / 57. 61.103* Package version:

1.5.4.0

*

*

*

libavformat

57. 52.100 / 57. 52.100
* See -help for a complete list of available parameters. *

libavdevice

57. 0.102 / 57. 0.102
*

*

libavfilter

6. 64.100 / 6. 64.100
*************************************************************

libswscale

4. 1.100 / 4. 1.100

libswresample 2. 2.100 / 2. 2.100

libpostproc

54. 0.100 / 54. 0.100
C:\Users\10930\闄堣鎱??minilive瑕佸敱浠€涔圿.mp4: Invalid argument
ERROR: could not parse WAV file

D:\小丸工具箱>"D:\小丸工具箱\tools\ffmpeg.exe" -loop 1 -r 1 -t 8309 -f image2 -i "C:\Windows\TEMP\marukotemp.jpg" -c:v libx264 -crf 24 -y SinglePictureVideo.mp4
ffmpeg version N-81989-g7845c13 Copyright (c) 2000-2016 the FFmpeg developers

built with gcc 5.4.0 (GCC)

configuration: --enable-gpl --enable-version3 --disable-w32threads --enable-dxva2 --enable-libmfx --enable-nvenc --enable-avisynth --enable-bzlib --enable-libebur128 --enable-fontconfig --enable-frei0r --enable-gnutls --enable-iconv --enable-libass --enable-libbluray --enable-libbs2b --enable-libcaca --enable-libfreetype --enable-libgme --enable-libgsm --enable-libilbc --enable-libmodplug --enable-libmp3lame --enable-libopencore-amrnb --enable-libopencore-amrwb --enable-libopenh264 --enable-libopenjpeg --enable-libopus --enable-librtmp --enable-libschroedinger --enable-libsnappy --enable-libsoxr --enable-libspeex --enable-libtheora --enable-libtwolame --enable-libvidstab --enable-libvo-amrwbenc --enable-libvorbis --enable-libvpx --enable-libwavpack --enable-libwebp --enable-libx264 --enable-libx265 --enable-libxavs --enable-libxvid --enable-libzimg --enable-lzma --enable-decklink --enable-zlib

libavutil

55. 32.100 / 55. 32.100

libavcodec

57. 61.103 / 57. 61.103

libavformat

57. 52.100 / 57. 52.100

libavdevice

57. 0.102 / 57. 0.102

libavfilter

6. 64.100 / 6. 64.100

libswscale

4. 1.100 / 4. 1.100

libswresample 2. 2.100 / 2. 2.100

libpostproc

54. 0.100 / 54. 0.100
Input #0, image2, from 'C:\Windows\TEMP\marukotemp.jpg':

Duration: 00:00:01.00, start: 0.000000, bitrate: N/A

Stream #0:0: Video: mjpeg, yuvj420p(pc, bt470bg/unknown/unknown), 720x720, 1 fps, 1 tbr, 1 tbn, 1 tbc
No pixel format specified, yuvj420p for H.264 encoding chosen.
Use -pix_fmt yuv420p for compatibility with outdated media players.
[libx264 @ 05a07d20] using cpu capabilities: MMX2 SSE2Fast SSSE3 SSE4.2 AVX FMA3 AVX2 LZCNT BMI2
[libx264 @ 05a07d20] profile High, level 3.1
[libx264 @ 05a07d20] 264 - core 148 r2721 72d53ab - H.264/MPEG-4 AVC codec - Copyleft 2003-2016 - http://www.videolan.org/x264.html - options: cabac=1 ref=3 deblock=1:0:0 analyse=0x3:0x113 me=hex subme=7 psy=1 psy_rd=1.00:0.00 mixed_ref=1 me_range=16 chroma_me=1 trellis=1 8x8dct=1 cqm=0 deadzone=21,11 fast_pskip=1 chroma_qp_offset=-2 threads=12 lookahead_threads=2 sliced_threads=0 nr=0 decimate=1 interlaced=0 bluray_compat=0 constrained_intra=0 bframes=3 b_pyramid=2 b_adapt=1 b_bias=0 direct=1 weightb=1 open_gop=0 weightp=2 keyint=250 keyint_min=1 scenecut=40 intra_refresh=0 rc_lookahead=40 rc=crf mbtree=1 crf=24.0 qcomp=0.60 qpmin=0 qpmax=69 qpstep=4 ip_ratio=1.40 aq=1:1.00
Output #0, mp4, to 'SinglePictureVideo.mp4':

Metadata:

encoder

: Lavf57.52.100

Stream #0:0: Video: h264 (libx264) ([33][0][0][0] / 0x0021), yuvj420p(pc), 720x720, q=-1--1, 1 fps, 16384 tbn, 1 tbc

Metadata:

encoder

: Lavc57.61.103 libx264

Side data:

cpb: bitrate max/min/avg: 0/0/0 buffer size: 0 vbv_delay: -1
Stream mapping:

Stream #0:0 -> #0:0 (mjpeg (native) -> h264 (libx264))
Press [q] to stop, [?] for help
frame= 8309 fps=211 q=-1.0 Lsize=

6503kB time=02:18:26.00 bitrate= 6.4kbits/s speed= 211x
video:6405kB audio:0kB subtitle:0kB other streams:0kB global headers:0kB muxing overhead: 1.531573%
[libx264 @ 05a07d20] frame I:34

Avg QP: 5.05 size:184078
[libx264 @ 05a07d20] frame P:2094 Avg QP: 9.86 size:

64
[libx264 @ 05a07d20] frame B:6181 Avg QP:10.33 size:

27
[libx264 @ 05a07d20] consecutive B-frames: 0.8% 0.0% 0.0% 99.2%
[libx264 @ 05a07d20] mb I I16..4: 4.9% 85.9% 9.2%
[libx264 @ 05a07d20] mb P I16..4: 0.0% 0.0% 0.0% P16..4: 0.4% 0.0% 0.0% 0.0% 0.0%

skip:99.6%
[libx264 @ 05a07d20] mb B I16..4: 0.0% 0.0% 0.0% B16..8: 0.0% 0.0% 0.0% direct: 0.0% skip:100.0% L0: 0.8% L1:99.2% BI: 0.0%
[libx264 @ 05a07d20] 8x8 transform intra:85.9% inter:91.2%
[libx264 @ 05a07d20] coded y,uvDC,uvAC intra: 96.9% 97.1% 92.6% inter: 0.0% 0.1% 0.0%
[libx264 @ 05a07d20] i16 v,h,dc,p: 15% 27% 35% 23%
[libx264 @ 05a07d20] i8 v,h,dc,ddl,ddr,vr,hd,vl,hu: 23% 18% 24% 5% 3% 8% 4% 9% 7%
[libx264 @ 05a07d20] i4 v,h,dc,ddl,ddr,vr,hd,vl,hu: 20% 19% 13% 7% 7% 9% 11% 7% 8%
[libx264 @ 05a07d20] i8c dc,h,v,p: 50% 19% 26% 5%
[libx264 @ 05a07d20] Weighted P-Frames: Y:0.0% UV:0.0%
[libx264 @ 05a07d20] ref P L0: 99.9% 0.0% 0.1% 0.0%
[libx264 @ 05a07d20] kb/s:6.31

D:\小丸工具箱>"D:\小丸工具箱\tools\ffmpeg.exe" -i SinglePictureVideo.mp4 -i audio.mp4 -c:v copy -c:a copy -y "C:\Users\10930\陈观慧[??minilive要唱什么]_SP.flv"
ffmpeg version N-81989-g7845c13 Copyright (c) 2000-2016 the FFmpeg developers

built with gcc 5.4.0 (GCC)

configuration: --enable-gpl --enable-version3 --disable-w32threads --enable-dxva2 --enable-libmfx --enable-nvenc --enable-avisynth --enable-bzlib --enable-libebur128 --enable-fontconfig --enable-frei0r --enable-gnutls --enable-iconv --enable-libass --enable-libbluray --enable-libbs2b --enable-libcaca --enable-libfreetype --enable-libgme --enable-libgsm --enable-libilbc --enable-libmodplug --enable-libmp3lame --enable-libopencore-amrnb --enable-libopencore-amrwb --enable-libopenh264 --enable-libopenjpeg --enable-libopus --enable-librtmp --enable-libschroedinger --enable-libsnappy --enable-libsoxr --enable-libspeex --enable-libtheora --enable-libtwolame --enable-libvidstab --enable-libvo-amrwbenc --enable-libvorbis --enable-libvpx --enable-libwavpack --enable-libwebp --enable-libx264 --enable-libx265 --enable-libxavs --enable-libxvid --enable-libzimg --enable-lzma --enable-decklink --enable-zlib

libavutil

55. 32.100 / 55. 32.100

libavcodec

57. 61.103 / 57. 61.103

libavformat

57. 52.100 / 57. 52.100

libavdevice

57. 0.102 / 57. 0.102

libavfilter

6. 64.100 / 6. 64.100

libswscale

4. 1.100 / 4. 1.100

libswresample 2. 2.100 / 2. 2.100

libpostproc

54. 0.100 / 54. 0.100
Input #0, mov,mp4,m4a,3gp,3g2,mj2, from 'SinglePictureVideo.mp4':

Metadata:

major_brand

: isom

minor_version : 512

compatible_brands: isomiso2avc1mp41

encoder

: Lavf57.52.100

Duration: 02:18:29.00, start: 0.000000, bitrate: 6 kb/s

Stream #0:0(und): Video: h264 (High) (avc1 / 0x31637661), yuvj420p(pc), 720x720, 6 kb/s, 1 fps, 1 tbr, 16384 tbn, 2 tbc (default)

Metadata:

handler_name

: VideoHandler
audio.mp4: No such file or directory

D:\小丸工具箱>del SinglePictureVideo.mp4

D:\小丸工具箱>del audio.mp4
找不到 D:\小丸工具箱\audio.mp4

D:\小丸工具箱>cmd
Microsoft Windows [版本 10.0.17134.471]
(c) 2018 Microsoft Corporation。保留所有权利。

评论 1 立即评论
lanlulululu
lanlulululu 1楼·31.6天前

视频信息发来一下。

后发表评论