cwj7

cwj7作者

默认节点·20.2天前

有大佬可以教一教我怎么用小丸压h264 ac3的ts档吗?

181029.KBS2.E386.你好.ts(副本)
容器:MPEG-TS
总码率:11.0 Mbps
大小:6.28 GiB
时长:1h 22mn 0s 303ms

视频(3055):AVC
码率:10 000 Kbps
大小:5.74 GiB (92%)
分辨率:1920x1080
宽高比:16:9(1.778)
帧率:29.970 fps
位深度:8 bits
像素宽高比:1.000
编码库:
Profile:High@L4
编码时间:
总帧数:147452

音频(3056):AC-3
大小:225 MiB (4%)
码率:384 Kbps
采样率:48.0 KHz
声道数:2

====详细信息====
ID

: 3055 (0xBEF)
Menu ID

: 305 (0x131)
Format

: AVC
Format/Info

: Advanced Video Codec
Format profile

: High@L4
Format settings, CABAC

: Yes
Format settings, ReFrames

: 3 frames
Codec ID

: 27
Duration

: 1h 21mn
Bit rate mode

: Constant
Bit rate

: 10 000 Kbps
Width

: 1 920 pixels
Height

: 1 080 pixels
Display aspect ratio

: 16:9
Frame rate

: 29.970 fps
Color space

: YUV
Chroma subsampling

: 4:2:0
Bit depth

: 8 bits
Scan type

: Interlaced
Scan order

: Top Field First
Bits/(Pixel*Frame)

: 0.161
Stream size

: 5.74 GiB (92%)
Color range

: Limited
Color primaries

: BT.709
Transfer characteristics

: BT.709
Matrix coefficients

: BT.709
Name

: ko:Video

ID

: 3056 (0xBF0)
Menu ID

: 305 (0x131)
Format

: AC-3
Format/Info

: Audio Coding 3
Mode extension

: CM (complete main)
Format settings, Endianness

: Big
Codec ID

: 129
Duration

: 1h 22mn
Bit rate mode

: Constant
Bit rate

: 384 Kbps
Channel(s)

: 2 channels
Channel positions

: Front: L R
Sampling rate

: 48.0 KHz
Compression mode

: Lossy
Delay relative to video

: 65ms
Stream size

: 225 MiB (4%)
Language

: Korean
Name

: ko:Audio

评论 1 立即评论
iavoe
iavoe 1楼·15.4小时前

你想压成什么格式呢?如果就是常规格式的话看lanlulululululu写的小丸入门操作教程就好了呀

后发表评论