lhb19901127

lhb19901127作者

我要提问·80.7天前

我的小丸压制视频出问题了

一个小时的视频最多只能压制5分钟。

无标题.mp4
容器:MPEG-4
总码率:21.2 Mb/s
大小:10.2 GiB
时长:1 h 8 min 42 s 453 ms

视频(2):AVC
Profile:Main@L4.1
码率:20.9 Mb/s
文件大小:10.0 GiB (98%)
分辨率:1920x1080
画面比例:16:9(1.778)
像素宽高比:1.000
帧率:28.942 FPS
色彩空间:YUV
色度抽样:4:2:0
位深度:8 bits
扫描方式:逐行扫描
编码时间:UTC 2018-07-27 04:19:26
总帧数:119283

音频(1):AAC
大小:156 MiB (1%)
码率:317 kb/s
采样率:48.0 kHz
声道数:2

====详细信息====
ID

: 2
Format

: AVC
Format/Info

: Advanced Video Codec
Format profile

: Main@L4.1
Format settings, CABAC

: Yes
Format settings, ReFrames

: 3 frames
Codec ID

: avc1
Codec ID/Info

: Advanced Video Coding
Duration

: 5 min 3 s
Bit rate mode

: Variable
Bit rate

: 20.9 Mb/s
Maximum bit rate

: 40.0 Mb/s
Width

: 1 920 pixels
Height

: 1 080 pixels
Display aspect ratio

: 16:9
Frame rate mode

: Constant
Frame rate

: 28.942 FPS
Original frame rate

: 28.940 FPS
Color space

: YUV
Chroma subsampling

: 4:2:0
Bit depth

: 8 bits
Scan type

: Progressive
Bits/(Pixel*Frame)

: 0.348
Stream size

: 10.0 GiB (98%)
Language

: English
Encoded date

: UTC 2018-07-27 04:19:26
Tagged date

: UTC 2018-07-27 04:19:26
Color range

: Limited

ID

: 1
Format

: AAC
Format/Info

: Advanced Audio Codec
Format profile

: LC
Codec ID

: 40
Duration

: 1 h 8 min
Bit rate mode

: Variable
Bit rate

: 317 kb/s
Maximum bit rate

: 524 kb/s
Channel(s)

: 2 channels
Channel positions

: Front: L R
Sampling rate

: 48.0 kHz
Frame rate

: 46.875 FPS (1024 spf)
Compression mode

: Lossy
Stream size

: 156 MiB (1%)
Language

: English
Encoded date

: UTC 2018-07-27 04:19:26
Tagged date

: UTC 2018-07-27 04:19:26

附上压制log

D:\Program Files\MarukoToolbox>"D:\Program Files\MarukoToolbox\tools\x264_64-8bit.exe" --pass 1 --bitrate 5850 --stats "D:\Program Files\MarukoToolbox\temp\无标题_vtemp.stats" --tune film --qcomp 0.65 --keyint auto --min-keyint 1 --profile high --level 5.1 --preset 8 --scenecut 60 --aq-mode 2 --aq-strength 0.8 --ref 12 -o NUL "F:\视频素材\无标题.mp4"
[info]: indexing input file [0.0%]

[info]: indexing input file [0.1%]

[info]: indexing input file [0.1%]

[info]: indexing input file [0.2%]

[info]: indexing input file [0.2%]

[info]: indexing input file [0.2%]

[info]: indexing input file [0.3%]

[info]: indexing input file [0.3%]

[info]: indexing input file [0.3%]

[info]: indexing input file [0.3%]

[info]: indexing input file [0.4%]

[info]: indexing input file [0.4%]

[info]: indexing input file [0.4%]

……
[info]: indexing input file [71.5%]
[info]: indexing input file [71.7%]
[info]: indexing input file [71.9%]
[info]: indexing input file [99.9%]

ffms [info]:

Format

: mov,mp4,m4a,3gp,3g2,mj2
Codec

: h264
PixFmt

: yuv420p
Framerate : 1000000/34551
Timebase : 1000/4500000000
Duration : 0:05:03
ffms [info]: 1920x1080p 1:1 @ 1000000/34551 fps (vfr)
ffms [info]: color matrix: bt709
x264 [info]: keyint is automatically set to 290.
x264 [info]: using SAR=1/1
x264 [info]: using cpu capabilities: MMX2 SSE2Fast SSSE3 SSE4.2 AVX FMA3 AVX2 LZCNT BMI2
x264 [info]: AVC Encoder x264 core 148 r2721+46 0c4b09a xiaowan [8-bit@all X86_64]
x264 [info]: profile: Main, level: 5.1, subsampling: 4:2:0, bit-depth: 8-bit
x264 [info]: cabac=1 ref=1 deblock=1:-1:-1 analyse=0x1:0 me=dia subme=2 psy=1 fade_compensate=0.00 psy_rd=1.00:0.15 mixed_ref=0 me_range=16 chroma_me=1 trellis=0 8x8dct=0 cqm=0 deadzone=21,11 fast_pskip=1 chroma_qp_offset=0 threads=6 lookahead_threads=6 sliced_threads=0 nr=0 decimate=1 interlaced=0 bluray_compat=0 constrained_intra=0 fgo=0 bframes=8 b_pyramid=2 b_adapt=2 b_bias=0 direct=3 weightb=1 open_gop=0 weightp=2 keyint=290 keyint_min=1 scenecut=60 intra_refresh=0 rc_lookahead=60 rc=abr mbtree=1 bitrate=5850 ratetol=1.0 qcomp=0.65 qpmin=0:0:0 qpmax=69:69:69 qpstep=4 ip_ratio=1.40 aq=2:0.80 aq-sensitivity=10.00 aq-factor=1.00:1.00:1.00 aq2=0 aq3=0
x264 [info]: started at Sun Jul 29 03:22:57 2018

评论 1 立即评论
lhb19901127
lhb19901127 1楼·80.7天前

vegas中的moive studio处理的视频

后发表评论