wxw良好

wxw良好作者

默认节点·141.5天前

音频与画质出现时差怎么解决,下面是工作日志

E:\小丸视频编辑\小丸工具箱rev190>"E:\小丸视频编辑\小丸工具箱rev190\tools\ffmpeg.
exe" -i "C:\Users\Administrator\Desktop\v.f20 (1).mp4" -ss 00:00:03 -to 00:00:58
-y -c copy "C:\Users\Administrator\Desktop\v.f20 (1)_output.mp4"
ffmpeg version N-74836-g4e4a395 Copyright (c) 2000-2015 the FFmpeg developers

built with gcc 5.2.0 (GCC)

configuration: --prefix=/mingw/i686-w64-mingw32 --target-os=mingw32 --arch=x86
--cpu=i686 --enable-gpl --enable-version3 --enable-runtime-cpudetect --enable-m
emalign-hack --enable-avisynth --enable-w32threads --enable-libwebp --enable-lib
mp3lame --enable-libopus --enable-libvorbis --enable-libopencore-amrnb --enable-
libopencore-amrwb --enable-libvo-aacenc --enable-libfaac --enable-libfdk-aac --e
nable-libvo-amrwbenc --enable-libvpx --enable-libx264 --enable-libx265 --enable-
libopenh264 --enable-libxvid --disable-doc --disable-debug --enable-nonfree --ex
tra-ldflags=-static --extra-cflags='-march=i686 -mtune=generic -mfpmath=sse -mss
e2 -fno-strict-aliasing'

libavutil

54. 31.100 / 54. 31.100

libavcodec

56. 60.100 / 56. 60.100

libavformat

56. 40.101 / 56. 40.101

libavdevice

56. 4.100 / 56. 4.100

libavfilter

5. 40.101 / 5. 40.101

libswscale

3. 1.101 / 3. 1.101

libswresample 1. 2.101 / 1. 2.101

libpostproc

53. 3.100 / 53. 3.100
Input #0, mov,mp4,m4a,3gp,3g2,mj2, from 'C:\Users\Administrator\Desktop\v.f20 (1
).mp4':

Metadata:

major_brand

: isom

minor_version : 512

compatible_brands: isomiso2avc1mp41

encoder

: Lavf56.40.101

description

: Tencent APD MTS

Duration: 00:01:10.40, start: 0.046440, bitrate: 590 kb/s

Stream #0:0(und): Video: h264 (High) (avc1 / 0x31637661), yuv420p, 640x360 [
SAR 1:1 DAR 16:9], 537 kb/s, 24 fps, 24 tbr, 12288 tbn, 48 tbc (default)

Metadata:

handler_name

: VideoHandler

Stream #0:1(und): Audio: aac (LC) (mp4a / 0x6134706D), 44100 Hz, stereo, flt
p, 48 kb/s (default)

Metadata:

handler_name

: SoundHandler
[mp4 @ 002a0180] Codec for stream 0 does not use global headers but container fo
rmat requires global headers
[mp4 @ 002a0180] Codec for stream 1 does not use global headers but container fo
rmat requires global headers
Output #0, mp4, to 'C:\Users\Administrator\Desktop\v.f20 (1)_output.mp4':

Metadata:

major_brand

: isom

minor_version : 512

compatible_brands: isomiso2avc1mp41

description

: Tencent APD MTS

encoder

: Lavf56.40.101

Stream #0:0(und): Video: h264 ([33][0][0][0] / 0x0021), yuv420p, 640x360 [SA
R 1:1 DAR 16:9], q=2-31, 537 kb/s, 24 fps, 24 tbr, 12288 tbn, 12288 tbc (default
)

Metadata:

handler_name

: VideoHandler

Stream #0:1(und): Audio: aac ([64][0][0][0] / 0x0040), 44100 Hz, stereo, 48
kb/s (default)

Metadata:

handler_name

: SoundHandler
Stream mapping:

Stream #0:0 -> #0:0 (copy)

Stream #0:1 -> #0:1 (copy)
Press [q] to stop, [?] for help
frame= 1081 fps=0.0 q=-1.0 Lsize=

3233kB time=00:00:55.00 bitrate= 481.5kbits
/s
video:2873kB audio:323kB subtitle:0kB other streams:0kB global headers:0kB muxin
g overhead: 1.154404%

E:\小丸视频编辑\小丸工具箱rev190>cmd
Microsoft Windows [版本 6.1.7601]
版权所有 (c) 2009 Microsoft Corporation。保留所有权利。

E:\小丸视频编辑\小丸工具箱rev190>

评论 3 立即评论
iavoe
iavoe 1楼·139.5天前

60%可能是可变分辨率,如果你不知道是什么意思那么可能性则是90%,在置顶的,或者我写的教程里都有去可变分辨率的方法 (⌒_⌒;)

wxw良好
wxw良好 2楼·128.4天前

@iavoe 麻烦你给我发一个最新的下载地址。可以吗

iavoe
iavoe 3楼·128.3天前

@wxw良好 如果你找置顶的教程就回到42.96.168.211:8088就能看到,如果你找我写的就去42.96.168.211:8088/topics/125吧(。’▽’。)♡

后发表评论